Loading...

Xpany.S03E01.720p.HDTV.x264-FLEET[PRiME]

seeders: 562
leechers: 135
Xpany.S03E01.720p.HDTV.x264-FLEET[PRiME] magnet link

Info Hash: 8CCAEC6ADBE1072E4909EBFC30D91581BFD8768C
Loading...
Xpany.S03E01.720p.HDTV.x264-FLEET[PRiME]
  • Downloads 11
  • Added 8 months
  • Quality Good
  • Torrent ID 16594067
  • Note if .torrent file deleted click magnet below
  • Download Magnet
Torrent Info:
• You can easily download Xpany.S03E01.720p.HDTV.x264-FLEET[PRiME] Torerent to your PC, MAC, Tablet, Mobile or any other devices.
• HD Quality Torrent Xpany.S03E01.720p.HDTV.x264-FLEET[PRiME]
• Your Support Keep WatchTorrentMovie.Us alive.

Torrent Files

Xpany.S03E01.720p.HDTV.x264-FLEET[PRiME] (Size: 912.07 MB)
  Xpany.S03E01.720p.HDTV.x264-FLEET[PRiME] 912.07 MB

Torrent Description



Xpany.S03E01.720p.HDTV.x264-FLEET



Complete name                            : X.Company.S03E01.720p.HDTV.x264-FLEET.mkv
Format                                   : Matroska
Format version                           : Version 2
File size                                : 912 MiB
Duration                                 : 43 min 34 s
Overall bit rate                         : 2 926 kb/s
Writing application                      : x264.exe
Writing library                          : mkv2rls x264-tv version built on 2016.10.12

Video
ID                                       : 1
Format                                   : AVC
Format/Info                              : Advanced Video Codec
Format profile                           :
Format settings, CABAC                   : Yes
Format settings, ReFrames                : 5 frames
Codec ID                                 : V_MPEG4/ISO/AVC
Duration                                 : 43 min 34 s
Bit rate                                 : 2 484 kb/s
Width                                    : 1 280 pixels
Height                                   : 720 pixels
Display aspect ratio                     : 16:9
Frame rate mode                          : Constant
Frame rate                               : 23.976 (24000/1001) FPS
Color space                              : YUV
Chroma subsampling                       : 4:2:0
Bit depth                                : 8 bits
Scan type                                : Progressive
Bits/(Pixel*Frame)                       : 0.112
Stream size                              : 774 MiB (85%)
Writing library                          : x264 core 148 r2744 b97ae06
Encoding settings                        : cabac=1 / ref=5 / deblock=1:0:0 / analyse=0x3:0x113 / me=hex / subme=8 / psy=1 / psy_rd=1.00:0.00 / mixed_ref=1 / me_range=16 / chroma_me=1 / trellis=2 / 8x8dct=1 / cqm=0 / deadzone=21,11 / fast_pskip=1 / chroma_qp_offset=-2 / threads=22 / lookahead_threads=3 / sliced_threads=0 / nr=0 / decimate=1 / interlaced=0 / bluray_compat=0 / constrained_intra=0 / bframes=3 / b_pyramid=2 / b_adapt=1 / b_bias=0 / direct=3 / weightb=1 / open_gop=0 / weightp=2 / keyint=250 / keyint_min=23 / scenecut=40 / intra_refresh=0 / rc_lookahead=50 / rc=crf / mbtree=1 / crf=18.0 / qcomp=0.60 / qpmin=0 / qpmax=69 / qpstep=4 / ip_ratio=1.40 / aq=1:1.00
Language                                 : English
Default                                  : Yes
Forced                                   : No
Color range                              : Limited
Matrix coefficients                      : BT.709

Audio
ID                                       : 2
Format                                   : AC-3
Format/Info                              : Audio Coding 3
Mode extension                           : CM (complete main)
Format settings, Endianness              : Big
Codec ID                                 : A_AC3
Duration                                 : 43 min 34 s
Bit rate mode                            : Constant
Bit rate                                 : 384 kb/s
Channel(s)                               : 6 channels
Channel positions                        : Front: L C R, Side: L R, LFE
Sampling rate                            : 48.0 kHz
Frame rate                               : 31.250 FPS (1536 spf)
Compression mode                         : Lossy
Stream size                              : 120 MiB (13%)
Language                                 : English
Default                                  : Yes
Forced                                   : No

Text
ID                                       : 3
Format                                   : UTF-8
Codec ID                                 : S_TEXT/UTF8
Codec ID/Info                            : UTF-8 Plain Text
Title                                    : English
Language                                 : English
Default                                  : No
Forced                                   : No




Click Image To View Full Size


Click To View Screenshot
Click To View Screenshot
Click To View Screenshot


( Tags )





People also Search for: Xpany.S03E01.720p.HDTV.x264-FLEET[PRiME]

  • • 1080p Xpany.S03E01.720p.HDTV.x264-FLEET[PRiME] Torrent
  • • 720p Xpany.S03E01.720p.HDTV.x264-FLEET[PRiME] DVDRip
  • • HD Xpany.S03E01.720p.HDTV.x264-FLEET[PRiME]
  • • Dvix/Xvid Xpany.S03E01.720p.HDTV.x264-FLEET[PRiME]
  • • Blu-ray Xpany.S03E01.720p.HDTV.x264-FLEET[PRiME]

Recently Added Torrents

torrent name size age seed leech
292.03 MB 27 minutes 647 231
128.7 MB 27 minutes 105 476
503.04 MB 27 minutes 255 405
144.7 MB 27 minutes 445 479
1.7 GB 27 minutes 148 43