162.158.63.29 Download UFC Battle Lines Dos Anjos vs Alvarez 720p WEB h264-OVERTiME[rartv] Torrent - Kickass Torrents
Loading...

UFC Battle Lines Dos Anjos vs Alvarez 720p WEB h264-OVERTiME[rartv]

seeders: 564
leechers: 99
UFC Battle Lines Dos Anjos vs Alvarez 720p WEB h264-OVERTiME[rartv] magnet link

Info Hash: 91305C1AAB4E84F61B76309A2A695241EA26809E
Loading...
UFC Battle Lines Dos Anjos vs Alvarez 720p WEB h264-OVERTiME[rartv]
  • Downloads 48
  • Added 1 year
  • Quality Good
  • Torrent ID 59700
  • Note if .torrent file deleted click magnet below
  • Download Magnet
Torrent Info:
• You can easily download UFC Battle Lines Dos Anjos vs Alvarez 720p WEB h264-OVERTiME[rartv] Torerent to your PC, MAC, Tablet, Mobile or any other devices.
• HD Quality Torrent UFC Battle Lines Dos Anjos vs Alvarez 720p WEB h264-OVERTiME[rartv]
• Your Support Keep WatchTorrentMovie.Us alive.

Torrent Files

UFC Battle Lines Dos Anjos vs Alvarez 720p WEB h264-OVERTiME[rartv] (Size: 651.3 MB)
  UFC Battle Lines Dos Anjos vs Alvarez 720p WEB h264-OVERTiME[rartv] 651.3 MB

Torrent Description

Torrent Description


https://rarbg.to
UFC.Battle.Lines.Dos.Anjos.vs.Alvarez.720p.WEB.h264-OVERTiME[rartv]

image
Screens :

image
Mediainfo :

Video
ID : 1
Format : AVC
Format/Info : Advanced Video Codec
Format profile : Main@L4
Format settings, CABAC : Yes
Format settings, ReFrames : 3 frames
Codec ID : V_MPEG4/ISO/AVC
Duration : 21mn 1s
Bit rate : 4 214 Kbps
Width : 1 280 pixels
Height : 720 pixels
Display aspect ratio : 16:9
Frame rate mode : Constant
Frame rate : 29.970 (30000/1001) fps
Original frame rate : 29.970 (29970/1000) fps
Color space : YUV
Chroma subsampling : 4:2:0
Bit depth : 8 bits
Scan type : Progressive
Bits/(Pixel*Frame) : 0.153
Stream size : 634 MiB (97%)
Default : Yes
Forced : No

Audio
ID : 2
Format : AAC
Format/Info : Advanced Audio Codec
Format profile : LC
Codec ID : A_AAC
Duration : 21mn 1s
Bit rate : 115 Kbps
Channel(s) : 2 channels
Channel positions : Front: L R
Sampling rate : 44.1 KHz
Frame rate : 43.066 fps (1024 spf)
Compression mode : Lossy
Delay relative to video : -33ms
Stream size : 17.3 MiB (3%)
Default : Yes
Forced : No


( Tags )





People also Search for: UFC Battle Lines Dos Anjos vs Alvarez 720p WEB h264-OVERTiME[rartv]

  • • 1080p UFC Battle Lines Dos Anjos vs Alvarez 720p WEB h264-OVERTiME[rartv] Torrent
  • • 720p UFC Battle Lines Dos Anjos vs Alvarez 720p WEB h264-OVERTiME[rartv] DVDRip
  • • HD UFC Battle Lines Dos Anjos vs Alvarez 720p WEB h264-OVERTiME[rartv]
  • • Dvix/Xvid UFC Battle Lines Dos Anjos vs Alvarez 720p WEB h264-OVERTiME[rartv]
  • • Blu-ray UFC Battle Lines Dos Anjos vs Alvarez 720p WEB h264-OVERTiME[rartv]

Recently Added Torrents

torrent name size age seed leech
1.37 GB 29 minutes 531 6
Dummy Life-HI2U
Posted by   Ghighina  in  Games
1.40 GB 29 minutes 90 290
2.4 GB 29 minutes 733 433
2.0 GB 29 minutes 54 413
598.6 KB 29 minutes 512 314