Loading...
Loading...

The Last King 2016 English Movies HDRip XviD AAC New Source with Sample ☻rDX☻

seeders: 361
leechers: 215
The Last King 2016 English Movies HDRip XviD AAC New Source with Sample ☻rDX☻ magnet link

Info Hash: 677D506A332175779A31B8E657E059D34DB2CE81
Loading...
The Last King 2016 English Movies HDRip XviD AAC New Source with Sample ☻rDX☻
  • Downloads 13
  • Added 3 months
  • Quality Good
  • Torrent ID 16593576
  • Note if .torrent file deleted click magnet below
  • Download Magnet
Torrent Info:
• You can easily download The Last King 2016 English Movies HDRip XviD AAC New Source with Sample ☻rDX☻ Torerent to your PC, MAC, Tablet, Mobile or any other devices.
• HD Quality Torrent The Last King 2016 English Movies HDRip XviD AAC New Source with Sample ☻rDX☻
• Your Support Keep WatchTorrentMovie.Us alive.

Torrent Files

The Last King 2016 English Movies HDRip XviD AAC New Source with Sample ☻rDX☻ (Size: 705.5 MB)
  The Last King 2016 English Movies HDRip XviD AAC New Source with Sample ☻rDX☻ 705.5 MB

Torrent Description



The Last King 2016 English Movies HDRip XviD AAC New Source with Sample ☻rDX☻

SCREEN SHOTS:



or

http://postimage.co.nr/2017/1/doctor/1.html

Format : Matroska
Format version : Version 4 / Version 2
File size : 697 MiB
Duration : 1 h 50 min
Overall bit rate mode : Constant
Overall bit rate : 881 kb/s
Movie name : The Last King 2016 English Movies HDRip XviD AAC New Source ☻rDX☻

Video
ID : 2
Format : AVC
Format/Info : Advanced Video Codec
Format profile : [email protected]
Format settings, CABAC : Yes
Format settings, ReFrames : 2 frames
Format settings, GOP : M=1, N=12
Codec ID : V_MPEG4/ISO/AVC
Duration : 1 h 50 min
Bit rate mode : Constant
Bit rate : 498 kb/s
Width : 720 pixels
Height : 400 pixels
Display aspect ratio : 16:9
Frame rate mode : Constant
Frame rate : 23.976 FPS
Color space : YUV
Chroma subsampling : 4:2:0
Bit depth : 8 bits
Scan type : Progressive
Bits/(Pixel*Frame) : 0.072
Stream size : 380 MiB (54%)
Title : ☻rDX☻
Default : Yes
Forced : No

Audio
ID : 1
Format : AC-3
Format/Info : Audio Coding 3
Mode extension : CM (complete main)
Format settings, Endianness : Big
Codec ID : A_AC3
Duration : 1 h 50 min
Bit rate mode : Constant
Bit rate : 384 kb/s
Channel(s) : 6 channels
Channel positions : Front: L C R, Side: L R, LFE
Sampling rate : 48.0 kHz
Frame rate : 31.250 FPS (1536 spf)
Bit depth : 16 bits
Compression mode : Lossy
Stream size : 304 MiB (44%)
Title : ☻rDX☻
Default : Yes
Forced : No



IMDB : http://www.imdb.com/title/tt1830848/




( Tags )





People also Search for: The Last King 2016 English Movies HDRip XviD AAC New Source with Sample ☻rDX

  • • 1080p The Last King 2016 English Movies HDRip XviD AAC New Source with Sample ☻rDX Torrent
  • • 720p The Last King 2016 English Movies HDRip XviD AAC New Source with Sample ☻rDX DVDRip
  • • HD The Last King 2016 English Movies HDRip XviD AAC New Source with Sample ☻rDX
  • • Dvix/Xvid The Last King 2016 English Movies HDRip XviD AAC New Source with Sample ☻rDX
  • • Blu-ray The Last King 2016 English Movies HDRip XviD AAC New Source with Sample ☻rDX

Recently Added Torrents

torrent name size age seed leech
43.37 MB 4 minutes 525 471
464.02 MB 4 minutes 43 493
97.50 MB 4 minutes 198 47
239.12 MB 4 minutes 741 442
367.15 MB 4 minutes 185 252