Loading...
Loading...
Loading...

The.Daily.Show.2017.01.11.Jonathan.Chait.720p.HDTV.x264-BRISK[PRiME]

seeders: 226
leechers: 461
The.Daily.Show.2017.01.11.Jonathan.Chait.720p.HDTV.x264-BRISK[PRiME] magnet link

Info Hash: 0DB7980F1331926B3C2D52C0D2A4977B7661E485
Loading...
The.Daily.Show.2017.01.11.Jonathan.Chait.720p.HDTV.x264-BRISK[PRiME]
  • Downloads 15
  • Added 4 months
  • Quality Good
  • Torrent ID 16594313
  • Note if .torrent file deleted click magnet below
  • Download Magnet
Torrent Info:
• You can easily download The.Daily.Show.2017.01.11.Jonathan.Chait.720p.HDTV.x264-BRISK[PRiME] Torerent to your PC, MAC, Tablet, Mobile or any other devices.
• HD Quality Torrent The.Daily.Show.2017.01.11.Jonathan.Chait.720p.HDTV.x264-BRISK[PRiME]
• Your Support Keep WatchTorrentMovie.Us alive.

Torrent Files

The.Daily.Show.2017.01.11.Jonathan.Chait.720p.HDTV.x264-BRISK[PRiME] (Size: 501.71 MB)
  The.Daily.Show.2017.01.11.Jonathan.Chait.720p.HDTV.x264-BRISK[PRiME] 501.71 MB

Torrent Description



The.Daily.Show.2017.01.11.Jonathan.Chait.720p.HDTV.x264-BRISK



Complete name                            : The.Daily.Show.2017.01.11.Jonathan.Chait.720p.HDTV.x264-BRISK.mkv
Format                                   : Matroska
Format version                           : Version 2
File size                                : 502 MiB
Duration                                 : 21 min 30 s
Overall bit rate                         : 3 260 kb/s
Writing application                      : x264.exe
Writing library                          : mkv2rls x264-tv version built on 2016.10.12

Video
ID                                       : 1
Format                                   : AVC
Format/Info                              : Advanced Video Codec
Format profile                           :
Format settings, CABAC                   : Yes
Format settings, ReFrames                : 5 frames
Codec ID                                 : V_MPEG4/ISO/AVC
Duration                                 : 21 min 30 s
Bit rate                                 : 2 811 kb/s
Width                                    : 1 280 pixels
Height                                   : 718 pixels
Display aspect ratio                     : 16:9
Frame rate mode                          : Constant
Frame rate                               : 59.940 (60000/1001) FPS
Color space                              : YUV
Chroma subsampling                       : 4:2:0
Bit depth                                : 8 bits
Scan type                                : Progressive
Bits/(Pixel*Frame)                       : 0.051
Stream size                              : 433 MiB (86%)
Writing library                          : x264 core 148 r2744 b97ae06
Encoding settings                        : cabac=1 / ref=5 / deblock=1:-2:-2 / analyse=0x3:0x113 / me=hex / subme=8 / psy=1 / psy_rd=1.00:0.00 / mixed_ref=1 / me_range=16 / chroma_me=1 / trellis=2 / 8x8dct=1 / cqm=0 / deadzone=21,11 / fast_pskip=1 / chroma_qp_offset=-2 / threads=18 / lookahead_threads=3 / sliced_threads=0 / nr=0 / decimate=1 / interlaced=0 / bluray_compat=0 / constrained_intra=0 / bframes=3 / b_pyramid=2 / b_adapt=1 / b_bias=0 / direct=3 / weightb=1 / open_gop=0 / weightp=2 / keyint=250 / keyint_min=25 / scenecut=40 / intra_refresh=0 / rc_lookahead=50 / rc=crf / mbtree=1 / crf=18.0 / qcomp=0.60 / qpmin=0 / qpmax=69 / qpstep=4 / ip_ratio=1.40 / aq=1:1.00
Language                                 : English
Default                                  : Yes
Forced                                   : No
Color range                              : Limited
Matrix coefficients                      : BT.709

Audio
ID                                       : 2
Format                                   : AC-3
Format/Info                              : Audio Coding 3
Mode extension                           : CM (complete main)
Format settings, Endianness              : Big
Codec ID                                 : A_AC3
Duration                                 : 21 min 30 s
Bit rate mode                            : Constant
Bit rate                                 : 384 kb/s
Channel(s)                               : 6 channels
Channel positions                        : Front: L C R, Side: L R, LFE
Sampling rate                            : 48.0 kHz
Frame rate                               : 31.250 FPS (1536 spf)
Compression mode                         : Lossy
Stream size                              : 59.1 MiB (12%)
Language                                 : English
Default                                  : Yes
Forced                                   : No

Text
ID                                       : 3
Format                                   : UTF-8
Codec ID                                 : S_TEXT/UTF8
Codec ID/Info                            : UTF-8 Plain Text
Title                                    : English
Language                                 : English
Default                                  : No
Forced                                   : No




Click Image To View Full Size


Click To View Screenshot
Click To View Screenshot
Click To View Screenshot


( Tags )





People also Search for: The.Daily.Show.2017.01.11.Jonathan.Chait.720p.HDTV.x264-BRISK[PRiME]

  • • 1080p The.Daily.Show.2017.01.11.Jonathan.Chait.720p.HDTV.x264-BRISK[PRiME] Torrent
  • • 720p The.Daily.Show.2017.01.11.Jonathan.Chait.720p.HDTV.x264-BRISK[PRiME] DVDRip
  • • HD The.Daily.Show.2017.01.11.Jonathan.Chait.720p.HDTV.x264-BRISK[PRiME]
  • • Dvix/Xvid The.Daily.Show.2017.01.11.Jonathan.Chait.720p.HDTV.x264-BRISK[PRiME]
  • • Blu-ray The.Daily.Show.2017.01.11.Jonathan.Chait.720p.HDTV.x264-BRISK[PRiME]

Recently Added Torrents

torrent name size age seed leech
68.91 MB 42 seconds 89 292
657.21 MB 42 seconds 481 129
1.1 GB 45 seconds 78 28
1.6 GB 44 seconds 251 229

Posted by   Admin  in 
10 months 280 95