162.158.63.29 Download Stacey Dooley Investigates - Canada's Lost Girls Torrent - Kickass Torrents
Loading...

Stacey Dooley Investigates - Canada's Lost Girls

seeders: 212
leechers: 377
Stacey Dooley Investigates - Canada's Lost Girls magnet link

Info Hash: 38AB4E97D9D68CC6D1D6EF523F71730CDF76854A
Loading...
Stacey Dooley Investigates - Canada's Lost Girls
  • Downloads 12
  • Added 7 months
  • Quality Good
  • Torrent ID 853876994
  • Note if .torrent file deleted click magnet below
  • Download Magnet
Torrent Info:
• You can easily download Stacey Dooley Investigates - Canada's Lost Girls Torerent to your PC, MAC, Tablet, Mobile or any other devices.
• HD Quality Torrent Stacey Dooley Investigates - Canada's Lost Girls
• Your Support Keep WatchTorrentMovie.Us alive.

Torrent Files

Stacey Dooley Investigates - Canada's Lost Girls (Size: 801.6 MB)
  Stacey Dooley Investigates - Canada's Lost Girls 801.6 MB

Torrent Description



Stacey Dooley Investigates - Canada's Lost Girls

Canada has a dark secret – the disappearance and murder over decades of more than a thousand indigenous women and girls. Stacey travels to British Columbia and Alberta to find out more about what some believe is a “national scandal”.

She begins on a remote road dubbed the ‘Highway of Tears”, where dozens of woman have vanished or been murdered since 1980 whilst trying to hitchhike. As a national enquiry is launched, it has emerged that there are cases across the country, but why do so many remain unsolved?

Take 20 year old single mother Amber Tuccaro, abducted and murdered in 2010. Stacey meets her family who feel there are still so many unanswered questions and no justice for Amber or for four other victims found in a six mile radius.

The community have criticised a police force that they accuse of failing to investigate indigenous cases properly – in the words of one elder “some of the biggest racists carry a gun, and they carry a badge”.

Stacey meets the police to ask what they are doing to address this issue and bring closure for the families of the missing and murdered.

(with soft subtitles)

First broadcast: 7 March 2017
Duration: 45 minutes



Media info:-

General
Format : MPEG-4
Format profile : Base Media
Codec ID : isom (isom/iso2/avc1/mp41)
File size : 801 MiB
Duration : 46mn 35s
Overall bit rate mode : Variable
Overall bit rate : 2 403 Kbps
Writing application : Lavf57.25.100

Video
ID : 1
Format : AVC
Format/Info : Advanced Video Codec
Format profile : [email protected]
Format settings, CABAC : Yes
Format settings, ReFrames : 2 frames
Codec ID : avc1
Codec ID/Info : Advanced Video Coding
Duration : 46mn 35s
Bit rate mode : Variable
Bit rate : 2 304 Kbps
Maximum bit rate : 3 500 Kbps
Width : 1 280 pixels
Height : 720 pixels
Display aspect ratio : 16:9
Frame rate mode : Constant
Frame rate : 25.000 fps
Color space : YUV
Chroma subsampling : 4:2:0
Bit depth : 8 bits
Scan type : Progressive
Bits/(Pixel*Frame) : 0.100
Stream size : 768 MiB (96%)

Audio
ID : 2
Format : AAC
Format/Info : Advanced Audio Codec
Format profile : LC
Codec ID : 40
Duration : 46mn 34s
Bit rate mode : Constant
Bit rate : 93.5 Kbps
Channel(s) : 2 channels
Channel positions : Front: L R
Sampling rate : 48.0 KHz
Frame rate : 46.875 fps (1024 spf)
Compression mode : Lossy
Stream size : 31.1 MiB (4%)




( Tags )





People also Search for: Stacey Dooley Investigates - Canada's Lost Girls

  • • 1080p Stacey Dooley Investigates - Canada's Lost Girls Torrent
  • • 720p Stacey Dooley Investigates - Canada's Lost Girls DVDRip
  • • HD Stacey Dooley Investigates - Canada's Lost Girls
  • • Dvix/Xvid Stacey Dooley Investigates - Canada's Lost Girls
  • • Blu-ray Stacey Dooley Investigates - Canada's Lost Girls

Recently Added Torrents

torrent name size age seed leech
1.37 GB 9 minutes 94 112
Dummy Life-HI2U
Posted by   Ghighina  in  Games
1.40 GB 9 minutes 170 245
2.4 GB 9 minutes 126 293
2.0 GB 9 minutes 656 377
598.6 KB 9 minutes 202 145