162.158.63.29 Download Sex Worker Clothing Store In Front Of The Customer - Aoi Shirosaki HEYZO-1031 Torrent - Kickass Torrents
Loading...

Sex Worker Clothing Store In Front Of The Customer - Aoi Shirosaki HEYZO-1031

seeders: 611
leechers: 126
Sex Worker Clothing Store In Front Of The Customer - Aoi Shirosaki HEYZO-1031 magnet link

Info Hash: 33DD8B6F21383A36A8DFD4217B1CC54C89CABC49
Loading...
Sex Worker Clothing Store In Front Of The Customer - Aoi Shirosaki HEYZO-1031
  • Downloads 217
  • Added 1 year
  • Quality Good
  • Torrent ID 586322
  • Note if .torrent file deleted click magnet below
  • Download Magnet
Torrent Info:
• You can easily download Sex Worker Clothing Store In Front Of The Customer - Aoi Shirosaki HEYZO-1031 Torerent to your PC, MAC, Tablet, Mobile or any other devices.
• HD Quality Torrent Sex Worker Clothing Store In Front Of The Customer - Aoi Shirosaki HEYZO-1031
• Your Support Keep WatchTorrentMovie.Us alive.

Torrent Files

Sex Worker Clothing Store In Front Of The Customer - Aoi Shirosaki HEYZO-1031 (Size: 2.10 GB)
  Sex Worker Clothing Store In Front Of The Customer - Aoi Shirosaki HEYZO-1031 2.10 GB

Torrent Description


http://picstream.tv/M4p/mmqtky.html
http://picstream.tv/M4q/rgfzfa.html
http://picstream.tv/M4r/bw97rh.html
http://picstream.tv/M4s/2n2r80.html
http://picstream.tv/M4t/7hhsua.html
http://picstream.tv/M4u/10mucj.html
http://picstream.tv/M4v/khokny.html
http://picstream.tv/M4w/2w45eq.html
http://picstream.tv/M4x/sa8707.html
http://picstream.tv/M4y/5qx84b.html
http://picstream.tv/M4z/heyzo-hd-1031-full-00-49-38-00004.html
http://picstream.tv/1C6o/heyzo-hd-1031-full-00-25-00-00002.html
http://picstream.tv/1C6p/heyzo-hd-1031-full-00-08-20-00000.html
http://picstream.tv/1C6q/heyzo-hd-1031-full-00-43-31-00003.html
http://picstream.tv/1C6r/heyzo-hd-1031-full-00-16-35-00001.html

Customer enters the store and starts making sexual contact with the owner, and leads to blowjobs and sex. Even when another customer enters the store, they continue the act.

General
Complete name : heyzo_hd_1031_full.mp4
Format : MPEG-4
Format profile : Base Media
Codec ID : isom (isom/iso2/avc1/mp41)
File size : 2.10 GiB
Duration : 57 min 52 s
Overall bit rate : 5 199 kb/s
Movie name : SEX
Performer :
Genre : AV
Encoded date : UTC 2015-12-02 22:36:01
Tagged date : UTC 2015-12-02 22:36:01
Writing application : Lavf54.6.100
Comment : Heyzo

Video
ID : 1
Format : AVC
Format/Info : Advanced Video Codec
Format profile : [email protected]
Format settings, CABAC : Yes
Format settings, ReFrames : 3 frames
Codec ID : avc1
Codec ID/Info : Advanced Video Coding
Duration : 57 min 52 s
Bit rate : 5 000 kb/s
Width : 1 920 pixels
Height : 1 080 pixels
Display aspect ratio : 16:9
Frame rate mode : Constant
Frame rate : 59.940 (59940/1000) FPS
Color space : YUV
Chroma subsampling : 4:2:0
Bit depth : 8 bits
Scan type : Progressive
Bits/(Pixel*Frame) : 0.040
Stream size : 2.02 GiB (96%)
Writing library : x264 core 142 r2453kMod ea0ca51
Encoding settings : cabac=1 / ref=3 / deblock=1:0:0 / analyse=0x3:0x113 / me=hex / subme=7 / psy=1 / fade_compensate=0.00 / psy_rd=1.00:0.00 / mixed_ref=1 / me_range=16 / chroma_me=1 / trellis=1 / 8x8dct=1 / cqm=0 / deadzone=21,11 / fast_pskip=1 / chroma_qp_offset=-2 / threads=18 / lookahead_threads=3 / sliced_threads=0 / nr=0 / decimate=1 / interlaced=0 / bluray_compat=0 / constrained_intra=0 / fgo=0 / bframes=0 / weightp=2 / keyint=250 / keyint_min=25 / scenecut=40 / intra_refresh=0 / rc_lookahead=40 / rc=2pass / mbtree=1 / bitrate=5000 / ratetol=1.0 / qcomp=0.60 / qpmin=10 / qpmax=51 / qpstep=4 / cplxblur=20.0 / qblur=0.5 / ip_ratio=1.40 / aq=1:1.00
Encoded date : UTC 2015-12-02 22:36:01
Tagged date : UTC 2015-12-02 22:36:01

Audio
ID : 2
Format : AAC
Format/Info : Advanced Audio Codec
Format profile : LC
Codec ID : 40
Duration : 57 min 52 s
Bit rate mode : Constant
Bit rate : 192 kb/s
Channel(s) : 2 channels
Channel positions : Front: L R
Sampling rate : 48.0 kHz
Frame rate : 46.875 FPS (1024 spf)
Compression mode : Lossy
Stream size : 78.6 MiB (4%)
Default : Yes
Alternate group : 1
Encoded date : UTC 2015-12-02 22:36:01
Tagged date : UTC 2015-12-02 22:36:01

hots











 

( Tags )





People also Search for: Sex Worker Clothing Store In Front Of The Customer - Aoi Shirosaki HEYZO-1031

  • • 1080p Sex Worker Clothing Store In Front Of The Customer - Aoi Shirosaki HEYZO-1031 Torrent
  • • 720p Sex Worker Clothing Store In Front Of The Customer - Aoi Shirosaki HEYZO-1031 DVDRip
  • • HD Sex Worker Clothing Store In Front Of The Customer - Aoi Shirosaki HEYZO-1031
  • • Dvix/Xvid Sex Worker Clothing Store In Front Of The Customer - Aoi Shirosaki HEYZO-1031
  • • Blu-ray Sex Worker Clothing Store In Front Of The Customer - Aoi Shirosaki HEYZO-1031

Recently Added Torrents

torrent name size age seed leech
1.37 GB 29 minutes 509 176
Dummy Life-HI2U
Posted by   Ghighina  in  Games
1.40 GB 29 minutes 753 301
2.4 GB 29 minutes 656 83
2.0 GB 29 minutes 579 480
598.6 KB 29 minutes 127 12