Loading...

Queen.of.Katwe.2016.HDRip.XviD.AC3-iFT[PRiME]

seeders: 366
leechers: 474
Queen.of.Katwe.2016.HDRip.XviD.AC3-iFT[PRiME] magnet link

Info Hash: 2C9E589AD88F45764750E60C46076D964AF6F3D1
Loading...
Queen.of.Katwe.2016.HDRip.XviD.AC3-iFT[PRiME]
  • Downloads 28
  • Added 6 months
  • Quality Good
  • Torrent ID 16593259
  • Note if .torrent file deleted click magnet below
  • Download Magnet
Torrent Info:
• You can easily download Queen.of.Katwe.2016.HDRip.XviD.AC3-iFT[PRiME] Torerent to your PC, MAC, Tablet, Mobile or any other devices.
• HD Quality Torrent Queen.of.Katwe.2016.HDRip.XviD.AC3-iFT[PRiME]
• Your Support Keep WatchTorrentMovie.Us alive.

Torrent Files

Queen.of.Katwe.2016.HDRip.XviD.AC3-iFT[PRiME] (Size: 2.13 GB)
  Queen.of.Katwe.2016.HDRip.XviD.AC3-iFT[PRiME] 2.13 GB

Torrent Description



Queen.of.Katwe.2016.HDRip.XviD.AC3-iFT

ImDb: http://www.imdb.com/title/tt4341582



Complete name                            : Queen.of.Katwe.2016.HDRip.XviD.AC3-iFT.avi
Format                                   : AVI
Format/Info                              : Audio Video Interleave
Format profile                           : OpenDML
Format settings                          : rec
File size                                : 2.12 GiB
Duration                                 : 2 h 4 min
Overall bit rate                         : 2 434 kb/s
Writing application                      : AVI-Mux GUI 1.17.8.3, Feb 16 201019:42:50

Video
ID                                       : 0
Format                                   : MPEG-4 Visual
Format profile                           : Advanced
Format settings, BVOP                    : 2
Format settings, QPel                    : No
Format settings, GMC                     : No warppoints
Format settings, Matrix                  : Default (H.263)
Muxing mode                              : Packed bitstream
Codec ID                                 : XVID
Codec ID/Hint                            : XviD
Duration                                 : 2 h 4 min
Bit rate                                 : 2 045 kb/s
Width                                    : 720 pixels
Height                                   : 304 pixels
Display aspect ratio                     : 2.35:1
Frame rate                               : 23.976 (23976/1000) FPS
Color space                              : YUV
Chroma subsampling                       : 4:2:0
Bit depth                                : 8 bits
Scan type                                : Progressive
Compression mode                         : Lossy
Bits/(Pixel*Frame)                       : 0.390
Stream size                              : 1.78 GiB (84%)
Writing library                          : XviD 73

Audio
ID                                       : 1
Format                                   : AC-3
Format/Info                              : Audio Coding 3
Mode extension                           : CM (complete main)
Format settings, Endianness              : Big
Codec ID                                 : 2000
Duration                                 : 2 h 4 min
Bit rate mode                            : Constant
Bit rate                                 : 384 kb/s
Channel(s)                               : 6 channels
Channel positions                        : Front: L C R, Side: L R, LFE
Sampling rate                            : 48.0 kHz
Frame rate                               : 31.250 FPS (1536 spf)
Compression mode                         : Lossy
Stream size                              : 341 MiB (16%)
Alignment                                : Aligned on interleaves
Interleave, duration                     : 64  ms (1.54 video frames)
Interleave, preload duration             : 192  ms
Title                                    : Queen.track_2




Click Image To View Full Size


Click To View Screenshot
Click To View Screenshot
Click To View Screenshot


( Tags )





People also Search for: Queen.of.Katwe.2016.HDRip.XviD.AC3-iFT[PRiME]

  • • 1080p Queen.of.Katwe.2016.HDRip.XviD.AC3-iFT[PRiME] Torrent
  • • 720p Queen.of.Katwe.2016.HDRip.XviD.AC3-iFT[PRiME] DVDRip
  • • HD Queen.of.Katwe.2016.HDRip.XviD.AC3-iFT[PRiME]
  • • Dvix/Xvid Queen.of.Katwe.2016.HDRip.XviD.AC3-iFT[PRiME]
  • • Blu-ray Queen.of.Katwe.2016.HDRip.XviD.AC3-iFT[PRiME]

Recently Added Torrents

torrent name size age seed leech
463.79 MB 13 minutes 333 97
568.1 MB 13 minutes 339 212
948.25 MB 13 minutes 318 229
273.3 MB 13 minutes 659 178
1.4 MB 13 minutes 560 264