Loading...

Law.and.Order.SVU.S18E08.720p.HDTV.x264-AVS[PRiME]

seeders: 215
leechers: 444
Law.and.Order.SVU.S18E08.720p.HDTV.x264-AVS[PRiME] magnet link

Info Hash: C0124B62FAD7A77AB03B89BD6755E42A99396DD3
Loading...
Law.and.Order.SVU.S18E08.720p.HDTV.x264-AVS[PRiME]
  • Downloads 14
  • Added 8 months
  • Quality Good
  • Torrent ID 16594068
  • Note if .torrent file deleted click magnet below
  • Download Magnet
Torrent Info:
• You can easily download Law.and.Order.SVU.S18E08.720p.HDTV.x264-AVS[PRiME] Torerent to your PC, MAC, Tablet, Mobile or any other devices.
• HD Quality Torrent Law.and.Order.SVU.S18E08.720p.HDTV.x264-AVS[PRiME]
• Your Support Keep WatchTorrentMovie.Us alive.

Torrent Files

Law.and.Order.SVU.S18E08.720p.HDTV.x264-AVS[PRiME] (Size: 848.17 MB)
  Law.and.Order.SVU.S18E08.720p.HDTV.x264-AVS[PRiME] 848.17 MB

Torrent Description



Law.and.Order.SVU.S18E08.720p.HDTV.x264-AVS



Complete name                            : Law.and.Order.SVU.S18E08.720p.HDTV.x264-AVS.mkv
Format                                   : Matroska
Format version                           : Version 4 / Version 2
File size                                : 848 MiB
Duration                                 : 41 min 33 s
Overall bit rate                         : 2 853 kb/s
Encoded date                             : UTC 2017-01-12 02:08:47
Writing application                      : FastLE v2.5.0 - AVS
Writing library                          : libx264 + libebml + libmatroska + libfastrar

Video
ID                                       : 1
Format                                   : AVC
Format/Info                              : Advanced Video Codec
Format profile                           :
Format settings, CABAC                   : Yes
Format settings, ReFrames                : 5 frames
Codec ID                                 : V_MPEG4/ISO/AVC
Duration                                 : 41 min 33 s
Bit rate                                 : 2 412 kb/s
Width                                    : 1 280 pixels
Height                                   : 720 pixels
Display aspect ratio                     : 16:9
Frame rate mode                          : Constant
Frame rate                               : 23.976 (24000/1001) FPS
Color space                              : YUV
Chroma subsampling                       : 4:2:0
Bit depth                                : 8 bits
Scan type                                : Progressive
Bits/(Pixel*Frame)                       : 0.109
Stream size                              : 717 MiB (85%)
Writing library                          : x264 core 148 r2721 72d53ab
Encoding settings                        : cabac=1 / ref=5 / deblock=1:0:0 / analyse=0x3:0x113 / me=hex / subme=8 / psy=1 / psy_rd=1.00:0.00 / mixed_ref=1 / me_range=16 / chroma_me=1 / trellis=2 / 8x8dct=1 / cqm=0 / deadzone=21,11 / fast_pskip=1 / chroma_qp_offset=-2 / threads=22 / lookahead_threads=3 / sliced_threads=0 / nr=0 / decimate=1 / interlaced=0 / bluray_compat=0 / constrained_intra=0 / bframes=3 / b_pyramid=2 / b_adapt=1 / b_bias=0 / direct=3 / weightb=1 / open_gop=0 / weightp=2 / keyint=250 / keyint_min=23 / scenecut=40 / intra_refresh=0 / rc_lookahead=50 / rc=crf / mbtree=1 / crf=18.0 / qcomp=0.60 / qpmin=0 / qpmax=69 / qpstep=4 / ip_ratio=1.40 / aq=1:1.00
Default                                  : Yes
Forced                                   : No
Color range                              : Limited
Matrix coefficients                      : BT.709

Audio
ID                                       : 2
Format                                   : AC-3
Format/Info                              : Audio Coding 3
Mode extension                           : CM (complete main)
Format settings, Endianness              : Big
Codec ID                                 : A_AC3
Duration                                 : 41 min 33 s
Bit rate mode                            : Constant
Bit rate                                 : 384 kb/s
Channel(s)                               : 6 channels
Channel positions                        : Front: L C R, Side: L R, LFE
Sampling rate                            : 48.0 kHz
Frame rate                               : 31.250 FPS (1536 spf)
Compression mode                         : Lossy
Stream size                              : 114 MiB (13%)
Default                                  : Yes
Forced                                   : No




Click Image To View Full Size


Click To View Screenshot
Click To View Screenshot
Click To View Screenshot


( Tags )





People also Search for: Law.and.Order.SVU.S18E08.720p.HDTV.x264-AVS[PRiME]

  • • 1080p Law.and.Order.SVU.S18E08.720p.HDTV.x264-AVS[PRiME] Torrent
  • • 720p Law.and.Order.SVU.S18E08.720p.HDTV.x264-AVS[PRiME] DVDRip
  • • HD Law.and.Order.SVU.S18E08.720p.HDTV.x264-AVS[PRiME]
  • • Dvix/Xvid Law.and.Order.SVU.S18E08.720p.HDTV.x264-AVS[PRiME]
  • • Blu-ray Law.and.Order.SVU.S18E08.720p.HDTV.x264-AVS[PRiME]

Recently Added Torrents

torrent name size age seed leech
292.03 MB 27 minutes 369 355
128.7 MB 27 minutes 232 54
503.04 MB 27 minutes 62 400
144.7 MB 27 minutes 784 406
1.7 GB 27 minutes 715 345