Loading...
Loading...
Loading...

Heroes.Wanted.2016.BDRip.x264-BiPOLAR[PRiME]

seeders: 518
leechers: 364
Heroes.Wanted.2016.BDRip.x264-BiPOLAR[PRiME] magnet link

Info Hash: 722777243FCF7087C97AD54B08194A81496FC35F
Loading...
Heroes.Wanted.2016.BDRip.x264-BiPOLAR[PRiME]
  • Downloads 15
  • Added 4 months
  • Quality Good
  • Torrent ID 16594616
  • Note if .torrent file deleted click magnet below
  • Download Magnet
Torrent Info:
• You can easily download Heroes.Wanted.2016.BDRip.x264-BiPOLAR[PRiME] Torerent to your PC, MAC, Tablet, Mobile or any other devices.
• HD Quality Torrent Heroes.Wanted.2016.BDRip.x264-BiPOLAR[PRiME]
• Your Support Keep WatchTorrentMovie.Us alive.

Torrent Files

Heroes.Wanted.2016.BDRip.x264-BiPOLAR[PRiME] (Size: 579.99 MB)
  Heroes.Wanted.2016.BDRip.x264-BiPOLAR[PRiME] 579.99 MB

Torrent Description



Heroes.Wanted.2016.BDRip.x264-BiPOLAR

ImDb: http://www.imdb.com/title/tt4806012



Complete name                            : heroes.wanted.2016.bdrip.x264-bipolar.mkv
Format                                   : Matroska
Format version                           : Version 4 / Version 2
File size                                : 580 MiB
Duration                                 : 1 h 36 min
Overall bit rate                         : 839 kb/s
Encoded date                             : UTC 2017-01-11 18:52:42
Writing application                      : mkvmerge v8.3.0 ('Over the Horizon') 64bit
Writing library                          : libebml v1.3.1 + libmatroska v1.4.2

Video
ID                                       : 1
Format                                   : AVC
Format/Info                              : Advanced Video Codec
Format profile                           :
Format settings, CABAC                   : Yes
Format settings, ReFrames                : 5 frames
Codec ID                                 : V_MPEG4/ISO/AVC
Duration                                 : 1 h 36 min
Bit rate                                 : 698 kb/s
Width                                    : 720 pixels
Height                                   : 302 pixels
Display aspect ratio                     : 2.40:1
Frame rate mode                          : Constant
Frame rate                               : 24.000 FPS
Color space                              : YUV
Chroma subsampling                       : 4:2:0
Bit depth                                : 8 bits
Scan type                                : Progressive
Bits/(Pixel*Frame)                       : 0.134
Stream size                              : 482 MiB (83%)
Writing library                          : x264 core 148 r2705 3f5ed56
Encoding settings                        : cabac=1 / ref=5 / deblock=1:-1:-1 / analyse=0x3:0x113 / me=umh / subme=8 / psy=1 / psy_rd=1.00:0.15 / mixed_ref=1 / me_range=16 / chroma_me=1 / trellis=2 / 8x8dct=1 / cqm=0 / deadzone=21,11 / fast_pskip=1 / chroma_qp_offset=-3 / threads=9 / lookahead_threads=1 / sliced_threads=0 / nr=0 / decimate=1 / interlaced=0 / bluray_compat=0 / constrained_intra=0 / bframes=3 / b_pyramid=2 / b_adapt=2 / b_bias=0 / direct=3 / weightb=1 / open_gop=0 / weightp=2 / keyint=250 / keyint_min=24 / scenecut=40 / intra_refresh=0 / rc_lookahead=50 / rc=crf / mbtree=1 / crf=19.0 / qcomp=0.60 / qpmin=0 / qpmax=69 / qpstep=4 / ip_ratio=1.40 / aq=1:1.00
Language                                 : English
Default                                  : Yes
Forced                                   : No
Color range                              : Limited
Matrix coefficients                      : BT.709

Audio
ID                                       : 2
Format                                   : AAC
Format/Info                              : Advanced Audio Codec
Format profile                           : LC
Codec ID                                 : A_AAC
Duration                                 : 1 h 36 min
Bit rate                                 : 139 kb/s
Channel(s)                               : 2 channels
Channel positions                        : Front: L R
Sampling rate                            : 48.0 kHz
Frame rate                               : 46.875 FPS (1024 spf)
Compression mode                         : Lossy
Delay relative to video                  : 9 ms
Stream size                              : 95.9 MiB (17%)
Language                                 : Spanish
Default                                  : Yes
Forced                                   : No

Text
ID                                       : 3
Format                                   : UTF-8
Codec ID                                 : S_TEXT/UTF8
Codec ID/Info                            : UTF-8 Plain Text
Duration                                 : 1 h 30 min
Bit rate                                 : 68 b/s
Count of elements                        : 1585
Stream size                              : 45.3 KiB (0%)
Title                                    : forced
Language                                 : English
Default                                  : Yes
Forced                                   : Yes

Menu
00:00:00.000                             : en:00:00:00.000
00:07:57.625                             : en:00:07:57.625
00:15:37.125                             : en:00:15:37.125
00:25:47.375                             : en:00:25:47.375
00:32:50.250                             : en:00:32:50.250
00:39:25.625                             : en:00:39:25.625
00:48:21.750                             : en:00:48:21.750
00:54:46.625                             : en:00:54:46.625
01:03:20.500                             : en:01:03:20.500
01:11:33.625                             : en:01:11:33.625
01:18:43.875                             : en:01:18:43.875
01:27:28.000                             : en:01:27:28.000
01:31:04.375                             : en:01:31:04.375




Click Image To View Full Size


Click To View Screenshot
Click To View Screenshot
Click To View Screenshot


( Tags )





People also Search for: Heroes.Wanted.2016.BDRip.x264-BiPOLAR[PRiME]

  • • 1080p Heroes.Wanted.2016.BDRip.x264-BiPOLAR[PRiME] Torrent
  • • 720p Heroes.Wanted.2016.BDRip.x264-BiPOLAR[PRiME] DVDRip
  • • HD Heroes.Wanted.2016.BDRip.x264-BiPOLAR[PRiME]
  • • Dvix/Xvid Heroes.Wanted.2016.BDRip.x264-BiPOLAR[PRiME]
  • • Blu-ray Heroes.Wanted.2016.BDRip.x264-BiPOLAR[PRiME]

Recently Added Torrents

torrent name size age seed leech
482.85 MB 29 minutes 257 283
593.63 MB 29 minutes 122 316
101.2 MB 29 minutes 447 418
1.4 GB 29 minutes 371 127
162.2 MB 29 minutes 735 126