Loading...

Heroes.Wanted.2016.1080p.BluRay.x264-BiPOLAR[PRiME]

seeders: 490
leechers: 250
Heroes.Wanted.2016.1080p.BluRay.x264-BiPOLAR[PRiME] magnet link

Info Hash: 5B7B08104200E7C808CBA29302150E5B5C816DF2
Loading...
Heroes.Wanted.2016.1080p.BluRay.x264-BiPOLAR[PRiME]
  • Downloads 18
  • Added 8 months
  • Quality Good
  • Torrent ID 16594618
  • Note if .torrent file deleted click magnet below
  • Download Magnet
Torrent Info:
• You can easily download Heroes.Wanted.2016.1080p.BluRay.x264-BiPOLAR[PRiME] Torerent to your PC, MAC, Tablet, Mobile or any other devices.
• HD Quality Torrent Heroes.Wanted.2016.1080p.BluRay.x264-BiPOLAR[PRiME]
• Your Support Keep WatchTorrentMovie.Us alive.

Torrent Files

Heroes.Wanted.2016.1080p.BluRay.x264-BiPOLAR[PRiME] (Size: 7.65 GB)
  Heroes.Wanted.2016.1080p.BluRay.x264-BiPOLAR[PRiME] 7.65 GB

Torrent Description



Heroes.Wanted.2016.1080p.BluRay.x264-BiPOLAR

ImDb: http://www.imdb.com/title/tt4806012



Complete name                            : heroes.wanted.2016.1080p.bluray.x264-bipolar.mkv
Format                                   : Matroska
Format version                           : Version 4 / Version 2
File size                                : 7.65 GiB
Duration                                 : 1 h 36 min
Overall bit rate                         : 11.3 Mb/s
Encoded date                             : UTC 2017-01-11 18:52:58
Writing application                      : mkvmerge v8.3.0 ('Over the Horizon') 64bit
Writing library                          : libebml v1.3.1 + libmatroska v1.4.2

Video
ID                                       : 1
Format                                   : AVC
Format/Info                              : Advanced Video Codec
Format profile                           :
Format settings, CABAC                   : Yes
Format settings, ReFrames                : 5 frames
Codec ID                                 : V_MPEG4/ISO/AVC
Duration                                 : 1 h 36 min
Bit rate                                 : 9 823 kb/s
Width                                    : 1 920 pixels
Height                                   : 808 pixels
Display aspect ratio                     : 2.40:1
Frame rate mode                          : Constant
Frame rate                               : 24.000 FPS
Color space                              : YUV
Chroma subsampling                       : 4:2:0
Bit depth                                : 8 bits
Scan type                                : Progressive
Bits/(Pixel*Frame)                       : 0.264
Stream size                              : 6.62 GiB (87%)
Writing library                          : x264 core 148 r2705 3f5ed56
Encoding settings                        : cabac=1 / ref=5 / deblock=1:0:0 / analyse=0x3:0x133 / me=umh / subme=9 / psy=1 / psy_rd=1.00:0.00 / mixed_ref=1 / me_range=16 / chroma_me=1 / trellis=2 / 8x8dct=1 / cqm=0 / deadzone=21,11 / fast_pskip=0 / chroma_qp_offset=-2 / threads=25 / lookahead_threads=2 / sliced_threads=0 / nr=0 / decimate=1 / interlaced=0 / bluray_compat=0 / constrained_intra=0 / bframes=3 / b_pyramid=2 / b_adapt=2 / b_bias=0 / direct=3 / weightb=1 / open_gop=0 / weightp=2 / keyint=250 / keyint_min=24 / scenecut=40 / intra_refresh=0 / rc_lookahead=50 / rc=2pass / mbtree=1 / bitrate=9823 / ratetol=1.0 / qcomp=0.60 / qpmin=0 / qpmax=69 / qpstep=4 / cplxblur=20.0 / qblur=0.5 / ip_ratio=1.40 / aq=1:1.00
Language                                 : English
Default                                  : Yes
Forced                                   : No

Audio
ID                                       : 2
Format                                   : DTS
Format/Info                              : Digital Theater Systems
Mode                                     : 16
Format settings, Endianness              : Big
Codec ID                                 : A_DTS
Duration                                 : 1 h 36 min
Bit rate mode                            : Constant
Bit rate                                 : 1 509 kb/s
Channel(s)                               : 6 channels
Channel positions                        : Front: L C R, Side: L R, LFE
Sampling rate                            : 48.0 kHz
Frame rate                               : 93.750 FPS (512 spf)
Bit depth                                : 24 bits
Compression mode                         : Lossy
Stream size                              : 1.02 GiB (13%)
Language                                 : Spanish
Default                                  : Yes
Forced                                   : No

Text
ID                                       : 3
Format                                   : UTF-8
Codec ID                                 : S_TEXT/UTF8
Codec ID/Info                            : UTF-8 Plain Text
Duration                                 : 1 h 30 min
Bit rate                                 : 68 b/s
Count of elements                        : 1585
Stream size                              : 45.3 KiB (0%)
Title                                    : forced
Language                                 : English
Default                                  : Yes
Forced                                   : Yes

Menu
00:00:00.000                             : en:00:00:00.000
00:07:57.625                             : en:00:07:57.625
00:15:37.125                             : en:00:15:37.125
00:25:47.375                             : en:00:25:47.375
00:32:50.250                             : en:00:32:50.250
00:39:25.625                             : en:00:39:25.625
00:48:21.750                             : en:00:48:21.750
00:54:46.625                             : en:00:54:46.625
01:03:20.500                             : en:01:03:20.500
01:11:33.625                             : en:01:11:33.625
01:18:43.875                             : en:01:18:43.875
01:27:28.000                             : en:01:27:28.000
01:31:04.375                             : en:01:31:04.375




Click Image To View Full Size


Click To View Screenshot
Click To View Screenshot
Click To View Screenshot


( Tags )





People also Search for: Heroes.Wanted.2016.1080p.BluRay.x264-BiPOLAR[PRiME]

  • • 1080p Heroes.Wanted.2016.1080p.BluRay.x264-BiPOLAR[PRiME] Torrent
  • • 720p Heroes.Wanted.2016.1080p.BluRay.x264-BiPOLAR[PRiME] DVDRip
  • • HD Heroes.Wanted.2016.1080p.BluRay.x264-BiPOLAR[PRiME]
  • • Dvix/Xvid Heroes.Wanted.2016.1080p.BluRay.x264-BiPOLAR[PRiME]
  • • Blu-ray Heroes.Wanted.2016.1080p.BluRay.x264-BiPOLAR[PRiME]

Recently Added Torrents

torrent name size age seed leech
292.03 MB 23 minutes 743 133
128.7 MB 23 minutes 377 432
503.04 MB 23 minutes 344 246
144.7 MB 23 minutes 311 488
1.7 GB 23 minutes 661 4