Loading...
Loading...
Loading...

Goat 2016 720p WEB-DL DD 5 1 x264-BDP[PRiME]

seeders: 547
leechers: 500
Goat 2016 720p WEB-DL DD 5 1 x264-BDP[PRiME] magnet link

Info Hash: 0560B2FCE8D0B6ABA4F729145256FAF71FE8CD56
Loading...
Goat 2016 720p WEB-DL DD 5 1 x264-BDP[PRiME]
  • Downloads 18
  • Added 4 months
  • Quality Good
  • Torrent ID 16594806
  • Note if .torrent file deleted click magnet below
  • Download Magnet
Torrent Info:
• You can easily download Goat 2016 720p WEB-DL DD 5 1 x264-BDP[PRiME] Torerent to your PC, MAC, Tablet, Mobile or any other devices.
• HD Quality Torrent Goat 2016 720p WEB-DL DD 5 1 x264-BDP[PRiME]
• Your Support Keep WatchTorrentMovie.Us alive.

Torrent Files

Goat 2016 720p WEB-DL DD 5 1 x264-BDP[PRiME] (Size: 1.8 GB)
  Goat 2016 720p WEB-DL DD 5 1 x264-BDP[PRiME] 1.8 GB

Torrent Description




Goat.2016.720p.WEB-DL.DD.5.1.x264-BDP[PRiME]

ImDb: http://www.imdb.com/title/tt4437216



Complete name : Goat.2016.720p.WEB-DL.DD.5.1.x264-BDP[PRiME].mkv
Format : Matroska
Format version : Version 4 / Version 2
File size : 1.77 GiB
Duration : 1 h 42 min
Overall bit rate : 2 473 kb/s
Encoded date : UTC 2017-01-11 23:29:06
Writing application : Lavf57.46.100
Writing library : Lavf57.46.100 / Lavf57.46.100
COMPOSER : Encoder *BDP*

Video
ID : 1
Format : AVC
Format/Info : Advanced Video Codec
Format profile : [email protected]
Format settings, CABAC : Yes
Format settings, ReFrames : 5 frames
Codec ID : V_MPEG4/ISO/AVC
Duration : 1 h 42 min
Bit rate : 2 040 kb/s
Nominal bit rate : 2 146 kb/s
Width : 1 280 pixels
Height : 680 pixels
Display aspect ratio : 16:9
Frame rate mode : Constant
Frame rate : 23.976 FPS
Standard : Component
Color space : YUV
Chroma subsampling : 4:2:0
Bit depth : 8 bits
Scan type : Progressive
Bits/(Pixel*Frame) : 0.098
Stream size : 1.46 GiB (82%)
Writing library : x264 core 148 r2643
Encoding settings : cabac=1 / ref=5 / deblock=1:-3:-3 / analyse=0x3:0x133 / me=umh / subme=7 / psy=1 / psy_rd=1.00:0.00 / mixed_ref=1 / me_range=16 / chroma_me=1 / trellis=1 / 8x8dct=1 / cqm=0 / deadzone=21,11 / fast_pskip=1 / chroma_qp_offset=-2 / threads=12 / lookahead_threads=2 / sliced_threads=0 / nr=0 / decimate=1 / interlaced=0 / bluray_compat=0 / constrained_intra=0 / bframes=3 / b_pyramid=0 / b_adapt=1 / b_bias=0 / direct=0 / weightb=1 / open_gop=0 / weightp=2 / keyint=239 / keyint_min=23 / scenecut=40 / intra_refresh=0 / rc_lookahead=40 / rc=abr / mbtree=1 / bitrate=2146 / ratetol=1.0 / qcomp=0.60 / qpmin=10 / qpmax=69 / qpstep=4 / vbv_maxrate=38642 / vbv_bufsize=38642 / nal_hrd=none / filler=0 / ip_ratio=1.40 / aq=3:1.00
Default : Yes
Forced : No
Color range : Limited
Color primaries : BT.709
Transfer characteristics : BT.709
Matrix coefficients : BT.709
DURATION : 01:42:25.646000000

Audio
ID : 2
Format : AC-3
Format/Info : Audio Coding 3
Mode extension : CM (complete main)
Format settings, Endianness : Big
Codec ID : A_AC3
Duration : 1 h 42 min
Bit rate mode : Constant
Bit rate : 384 kb/s
Channel(s) : 6 channels
Channel positions : Front: L C R, Side: L R, LFE
Sampling rate : 48.0 kHz
Frame rate : 31.250 FPS (1536 spf)
Compression mode : Lossy
Stream size : 281 MiB (16%)
Default : Yes
Forced : No
DURATION : 01:42:25.632000000




Click Image To View Full Size


Click To View Screenshot
Click To View Screenshot
Click To View Screenshot




( Tags )





People also Search for: Goat 2016 720p WEB-DL DD 5 1 x264-BDP[PRiME]

  • • 1080p Goat 2016 720p WEB-DL DD 5 1 x264-BDP[PRiME] Torrent
  • • 720p Goat 2016 720p WEB-DL DD 5 1 x264-BDP[PRiME] DVDRip
  • • HD Goat 2016 720p WEB-DL DD 5 1 x264-BDP[PRiME]
  • • Dvix/Xvid Goat 2016 720p WEB-DL DD 5 1 x264-BDP[PRiME]
  • • Blu-ray Goat 2016 720p WEB-DL DD 5 1 x264-BDP[PRiME]

Recently Added Torrents

torrent name size age seed leech

Posted by   Admin  in 
10 months 72 419
491.71 MB 20 minutes 462 425
495.12 MB 20 minutes 475 457
705.3 MB 20 minutes 123 413
1.5 GB 20 minutes 472 104