Loading...

Come And Find Me 2016 English Movies BRRip XviD AAC New Source with Sample ☻rDX☻

seeders: 576
leechers: 224
Come And Find Me 2016 English Movies BRRip XviD AAC New Source with Sample ☻rDX☻ magnet link

Info Hash: 98BE587D328850DB0D2142108CDD16F0310094ED
Loading...
Come And Find Me 2016 English Movies BRRip XviD AAC New Source with Sample ☻rDX☻
  • Downloads 15
  • Added 6 months
  • Quality Good
  • Torrent ID 16593458
  • Note if .torrent file deleted click magnet below
  • Download Magnet
Torrent Info:
• You can easily download Come And Find Me 2016 English Movies BRRip XviD AAC New Source with Sample ☻rDX☻ Torerent to your PC, MAC, Tablet, Mobile or any other devices.
• HD Quality Torrent Come And Find Me 2016 English Movies BRRip XviD AAC New Source with Sample ☻rDX☻
• Your Support Keep WatchTorrentMovie.Us alive.

Torrent Files

Come And Find Me 2016 English Movies BRRip XviD AAC New Source with Sample ☻rDX☻ (Size: 705.1 MB)
  Come And Find Me 2016 English Movies BRRip XviD AAC New Source with Sample ☻rDX☻ 705.1 MB

Torrent Description



Come And Find Me 2016 English Movies BRRip XviD AAC New Source with Sample ☻rDX☻

SCREEN SHOTS:



or

http://postimage.co.nr/2017/1/advocate/1.html

Format : Matroska
Format version : Version 4 / Version 2
File size : 698 MiB
Duration : 1 h 52 min
Overall bit rate mode : Constant
Overall bit rate : 870 kb/s
Movie name : Come And Find Me 2016 English Movies BRRip XviD AAC New Source ☻rDX☻

Video
ID : 2
Format : AVC
Format/Info : Advanced Video Codec
Format profile : [email protected]
Format settings, CABAC : Yes
Format settings, ReFrames : 2 frames
Format settings, GOP : M=1, N=12
Codec ID : V_MPEG4/ISO/AVC
Duration : 1 h 52 min
Bit rate mode : Constant
Bit rate : 423 kb/s
Width : 720 pixels
Height : 304 pixels
Display aspect ratio : 2.35:1
Frame rate mode : Constant
Frame rate : 23.976 FPS
Color space : YUV
Chroma subsampling : 4:2:0
Bit depth : 8 bits
Scan type : Progressive
Bits/(Pixel*Frame) : 0.081
Stream size : 325 MiB (47%)
Title : ☻rDX☻
Default : Yes
Forced : No

Audio
ID : 1
Format : AC-3
Format/Info : Audio Coding 3
Mode extension : CM (complete main)
Format settings, Endianness : Big
Codec ID : A_AC3
Duration : 1 h 52 min
Bit rate mode : Constant
Bit rate : 448 kb/s
Channel(s) : 6 channels
Channel positions : Front: L C R, Side: L R, LFE
Sampling rate : 48.0 kHz
Frame rate : 31.250 FPS (1536 spf)
Bit depth : 16 bits
Compression mode : Lossy
Stream size : 359 MiB (51%)
Title : ☻rDX☻
Default : Yes
Forced : No



IMDB : http://www.imdb.com/title/tt2597768/




( Tags )





People also Search for: Come And Find Me 2016 English Movies BRRip XviD AAC New Source with Sample ☻rD

  • • 1080p Come And Find Me 2016 English Movies BRRip XviD AAC New Source with Sample ☻rD Torrent
  • • 720p Come And Find Me 2016 English Movies BRRip XviD AAC New Source with Sample ☻rD DVDRip
  • • HD Come And Find Me 2016 English Movies BRRip XviD AAC New Source with Sample ☻rD
  • • Dvix/Xvid Come And Find Me 2016 English Movies BRRip XviD AAC New Source with Sample ☻rD
  • • Blu-ray Come And Find Me 2016 English Movies BRRip XviD AAC New Source with Sample ☻rD

Recently Added Torrents

torrent name size age seed leech
Racks 2 XXX DVDRip
Posted by   MyySQL  in  Adult
1.12 GB 12 minutes 17 454
466.14 MB 12 minutes 63 179
182.9 MB 12 minutes 477 284
1.9 GB 12 minutes 271 381
1.69 GB 12 minutes 474 121