Loading...

Coin.Heist.2017.NF.1080p.DD.5.1.x264-SadeceBluRay[PRiME]

seeders: 242
leechers: 372
Coin.Heist.2017.NF.1080p.DD.5.1.x264-SadeceBluRay[PRiME] magnet link

Info Hash: 1029D6C3144985A6F08B138A7DB1F8B9D16559F0
Loading...
Coin.Heist.2017.NF.1080p.DD.5.1.x264-SadeceBluRay[PRiME]
  • Downloads 17
  • Added 8 months
  • Quality Good
  • Torrent ID 16594365
  • Note if .torrent file deleted click magnet below
  • Download Magnet
Torrent Info:
• You can easily download Coin.Heist.2017.NF.1080p.DD.5.1.x264-SadeceBluRay[PRiME] Torerent to your PC, MAC, Tablet, Mobile or any other devices.
• HD Quality Torrent Coin.Heist.2017.NF.1080p.DD.5.1.x264-SadeceBluRay[PRiME]
• Your Support Keep WatchTorrentMovie.Us alive.

Torrent Files

Coin.Heist.2017.NF.1080p.DD.5.1.x264-SadeceBluRay[PRiME] (Size: 6.99 GB)
  Coin.Heist.2017.NF.1080p.DD.5.1.x264-SadeceBluRay[PRiME] 6.99 GB

Torrent Description



Coin.Heist.2017.NF.1080p.DD.5.1.x264-SadeceBluRay

ImDb: http://www.imdb.com/title/tt5740806



Complete name                            : Coin.Heist.2017.NF.1080p.DD.5.1.x264-SadeceBluRay.mkv
Format                                   : Matroska
Format version                           : Version 4 / Version 2
File size                                : 6.99 GiB
Duration                                 : 1 h 37 min
Overall bit rate                         : 10.3 Mb/s
Movie name                               : SadeceBluRay
Encoded date                             : UTC 2017-01-07 13:10:22
Writing application                      : mkvmerge v8.0.0 ('Til The Day That I Die') 64bit
Writing library                          : libebml v1.3.1 + libmatroska v1.4.2

Video
ID                                       : 1
Format                                   : AVC
Format/Info                              : Advanced Video Codec
Format profile                           :
Format settings, CABAC                   : Yes
Format settings, ReFrames                : 4 frames
Codec ID                                 : V_MPEG4/ISO/AVC
Duration                                 : 1 h 36 min
Bit rate                                 : 9 826 kb/s
Width                                    : 1 920 pixels
Height                                   : 1 036 pixels
Display aspect ratio                     : 1.85:1
Frame rate mode                          : Constant
Frame rate                               : 23.976 (24000/1001) FPS
Color space                              : YUV
Chroma subsampling                       : 4:2:0
Bit depth                                : 8 bits
Scan type                                : Progressive
Bits/(Pixel*Frame)                       : 0.206
Stream size                              : 6.64 GiB (95%)
Title                                    : SadeceBluRay
Writing library                          : x264 core 148 r2638 7599210
Encoding settings                        : cabac=1 / ref=4 / deblock=1:-3:-3 / analyse=0x3:0x133 / me=umh / subme=9 / psy=1 / psy_rd=1.00:0.15 / mixed_ref=1 / me_range=32 / chroma_me=1 / trellis=2 / 8x8dct=1 / cqm=0 / deadzone=21,11 / fast_pskip=1 / chroma_qp_offset=-3 / threads=18 / lookahead_threads=1 / sliced_threads=0 / slices=4 / nr=0 / decimate=1 / interlaced=0 / bluray_compat=0 / constrained_intra=0 / bframes=3 / b_pyramid=2 / b_adapt=2 / b_bias=0 / direct=3 / weightb=1 / open_gop=0 / weightp=2 / keyint=240 / keyint_min=23 / scenecut=40 / intra_refresh=0 / rc_lookahead=60 / rc=crf / mbtree=1 / crf=17.0 / qcomp=0.60 / qpmin=0 / qpmax=69 / qpstep=4 / ip_ratio=1.40 / aq=3:0.85
Default                                  : Yes
Forced                                   : No
Color range                              : Limited
Matrix coefficients                      : BT.709

Audio
ID                                       : 2
Format                                   : AC-3
Format/Info                              : Audio Coding 3
Mode extension                           : CM (complete main)
Format settings, Endianness              : Big
Codec ID                                 : A_AC3
Duration                                 : 1 h 37 min
Bit rate mode                            : Constant
Bit rate                                 : 512 kb/s
Channel(s)                               : 6 channels
Channel positions                        : Front: L C R, Side: L R, LFE
Sampling rate                            : 48.0 kHz
Frame rate                               : 31.250 FPS (1536 spf)
Compression mode                         : Lossy
Delay relative to video                  : 4 ms
Stream size                              : 358 MiB (5%)
Language                                 : English
Default                                  : No
Forced                                   : No

Text
ID                                       : 3
Format                                   : UTF-8
Codec ID                                 : S_TEXT/UTF8
Codec ID/Info                            : UTF-8 Plain Text
Duration                                 : 1 h 31 min
Bit rate                                 : 70 b/s
Count of elements                        : 1412
Stream size                              : 47.1 KiB (0%)
Language                                 : English
Default                                  : Yes
Forced                                   : No




Click Image To View Full Size


Click To View Screenshot
Click To View Screenshot
Click To View Screenshot


( Tags )





People also Search for: Coin.Heist.2017.NF.1080p.DD.5.1.x264-SadeceBluRay[PRiME]

  • • 1080p Coin.Heist.2017.NF.1080p.DD.5.1.x264-SadeceBluRay[PRiME] Torrent
  • • 720p Coin.Heist.2017.NF.1080p.DD.5.1.x264-SadeceBluRay[PRiME] DVDRip
  • • HD Coin.Heist.2017.NF.1080p.DD.5.1.x264-SadeceBluRay[PRiME]
  • • Dvix/Xvid Coin.Heist.2017.NF.1080p.DD.5.1.x264-SadeceBluRay[PRiME]
  • • Blu-ray Coin.Heist.2017.NF.1080p.DD.5.1.x264-SadeceBluRay[PRiME]

Recently Added Torrents

torrent name size age seed leech
292.03 MB 23 minutes 649 179
128.7 MB 23 minutes 142 189
503.04 MB 23 minutes 127 76
144.7 MB 23 minutes 648 70
1.7 GB 23 minutes 442 231