Loading...
Loading...

Coin Heist 2017 English Movies HDRip XviD AAC New Source with Sample ☻rDX☻

seeders: 691
leechers: 152
Coin Heist 2017 English Movies HDRip XviD AAC New Source with Sample ☻rDX☻ magnet link

Info Hash: F15D4DB8580C07B3743A552FA8C2EE39E56A92F0
Loading...
Coin Heist 2017 English Movies HDRip XviD AAC New Source with Sample ☻rDX☻
  • Downloads 13
  • Added 3 months
  • Quality Good
  • Torrent ID 16579666
  • Note if .torrent file deleted click magnet below
  • Download Magnet
Torrent Info:
• You can easily download Coin Heist 2017 English Movies HDRip XviD AAC New Source with Sample ☻rDX☻ Torerent to your PC, MAC, Tablet, Mobile or any other devices.
• HD Quality Torrent Coin Heist 2017 English Movies HDRip XviD AAC New Source with Sample ☻rDX☻
• Your Support Keep WatchTorrentMovie.Us alive.

Torrent Files

Coin Heist 2017 English Movies HDRip XviD AAC New Source with Sample ☻rDX☻ (Size: 705.9 MB)
  Coin Heist 2017 English Movies HDRip XviD AAC New Source with Sample ☻rDX☻ 705.9 MB

Torrent Description



Coin Heist 2017 English Movies HDRip XviD AAC New Source with Sample ☻rDX☻

SCREEN SHOTS:



or

http://postimage.co.nr/2017/1/sell/1.html

Format : Matroska
Format version : Version 4 / Version 2
File size : 698 MiB
Duration : 1 h 36 min
Overall bit rate mode : Constant
Overall bit rate : 1 008 kb/s
Movie name : Coin Heist 2017 English Movies HDRip XviD AAC New Source ☻rDX☻

Video
ID : 2
Format : AVC
Format/Info : Advanced Video Codec
Format profile : [email protected]
Format settings, CABAC : Yes
Format settings, ReFrames : 2 frames
Format settings, GOP : M=1, N=12
Codec ID : V_MPEG4/ISO/AVC
Duration : 1 h 36 min
Bit rate mode : Constant
Bit rate : 561 kb/s
Width : 720 pixels
Height : 384 pixels
Display aspect ratio : 1.85:1
Frame rate mode : Constant
Frame rate : 23.976 FPS
Color space : YUV
Chroma subsampling : 4:2:0
Bit depth : 8 bits
Scan type : Progressive
Bits/(Pixel*Frame) : 0.085
Stream size : 374 MiB (54%)
Title : ☻rDX☻
Default : Yes
Forced : No

Audio
ID : 1
Format : AC-3
Format/Info : Audio Coding 3
Mode extension : CM (complete main)
Format settings, Endianness : Big
Codec ID : A_AC3
Duration : 1 h 36 min
Bit rate mode : Constant
Bit rate : 448 kb/s
Channel(s) : 6 channels
Channel positions : Front: L C R, Side: L R, LFE
Sampling rate : 48.0 kHz
Frame rate : 31.250 FPS (1536 spf)
Bit depth : 16 bits
Compression mode : Lossy
Stream size : 310 MiB (44%)
Title : ☻rDX☻
Default : Yes
Forced : No



IMDB : http://www.imdb.com/title/tt5740806/




( Tags )





People also Search for: Coin Heist 2017 English Movies HDRip XviD AAC New Source with Sample ☻rDX☻

  • • 1080p Coin Heist 2017 English Movies HDRip XviD AAC New Source with Sample ☻rDX☻ Torrent
  • • 720p Coin Heist 2017 English Movies HDRip XviD AAC New Source with Sample ☻rDX☻ DVDRip
  • • HD Coin Heist 2017 English Movies HDRip XviD AAC New Source with Sample ☻rDX☻
  • • Dvix/Xvid Coin Heist 2017 English Movies HDRip XviD AAC New Source with Sample ☻rDX☻
  • • Blu-ray Coin Heist 2017 English Movies HDRip XviD AAC New Source with Sample ☻rDX☻

Recently Added Torrents

torrent name size age seed leech

Posted by   Admin  in 
9 months 71 147
986.43 MB 28 minutes 459 415
4.36 GB 28 minutes 203 223
245.56 MB 28 minutes 784 3
489.63 MB 28 minutes 552 313