Loading...
Loading...

Chasing Robert Barker 2015 English Movies HDRip XviD AAC New Source with Sample ☻rDX☻

seeders: 526
leechers: 186
Chasing Robert Barker 2015 English Movies HDRip XviD AAC New Source with Sample ☻rDX☻ magnet link

Info Hash: F550E85184941597B3F1CB1AC5582273562F6DF7
Loading...
Chasing Robert Barker 2015 English Movies HDRip XviD AAC New Source with Sample ☻rDX☻
  • Downloads 7
  • Added 3 months
  • Quality Good
  • Torrent ID 16585010
  • Note if .torrent file deleted click magnet below
  • Download Magnet
Torrent Info:
• You can easily download Chasing Robert Barker 2015 English Movies HDRip XviD AAC New Source with Sample ☻rDX☻ Torerent to your PC, MAC, Tablet, Mobile or any other devices.
• HD Quality Torrent Chasing Robert Barker 2015 English Movies HDRip XviD AAC New Source with Sample ☻rDX☻
• Your Support Keep WatchTorrentMovie.Us alive.

Torrent Files

Chasing Robert Barker 2015 English Movies HDRip XviD AAC New Source with Sample ☻rDX☻ (Size: 705.0 MB)
  Chasing Robert Barker 2015 English Movies HDRip XviD AAC New Source with Sample ☻rDX☻ 705.0 MB

Torrent Description



Chasing Robert Barker 2015 English Movies HDRip XviD AAC New Source with Sample ☻rDX☻

SCREEN SHOTS:



or

http://postimage.co.nr/2017/1/online/1.html

Format : Matroska
Format version : Version 4 / Version 2
File size : 694 MiB
Duration : 1 h 27 min
Overall bit rate : 1 105 kb/s
Movie name : Chasing Robert Barker 2015 English Movies HDRip XviD AAC New Source ☻rDX☻

Video
ID : 1
Format : MPEG-4 Visual
Format profile : Advanced [email protected]
Format settings, BVOP : 2
Format settings, QPel : No
Format settings, GMC : No warppoints
Format settings, Matrix : Default (H.263)
Muxing mode : Packed bitstream
Codec ID : V_MS/VFW/FOURCC / XVID
Codec ID/Hint : XviD
Duration : 1 h 27 min
Bit rate : 955 kb/s
Width : 640 pixels
Height : 272 pixels
Display aspect ratio : 2.35:1
Frame rate mode : Constant
Frame rate : 25.000 FPS
Color space : YUV
Chroma subsampling : 4:2:0
Bit depth : 8 bits
Scan type : Progressive
Compression mode : Lossy
Bits/(Pixel*Frame) : 0.220
Stream size : 600 MiB (86%)
Title : ☻rDX☻
Writing library : XviD 64
Default : Yes
Forced : No

Audio
ID : 2
Format : MPEG Audio
Format version : Version 1
Format profile : Layer 3
Mode : Joint stereo
Mode extension : MS Stereo
Codec ID : A_MPEG/L3
Codec ID/Hint : MP3
Duration : 1 h 27 min
Bit rate mode : Constant
Bit rate : 128 kb/s
Channel(s) : 2 channels
Sampling rate : 48.0 kHz
Compression mode : Lossy
Stream size : 80.3 MiB (12%)
Title : ☻rDX☻
Writing library : LAME3.99r
Encoding settings : -m j -V 4 -q 3 -lowpass 17 -b 128
Default : Yes
Forced : No



IMDB : http://www.imdb.com/title/tt2904670/




( Tags )





People also Search for: Chasing Robert Barker 2015 English Movies HDRip XviD AAC New Source with Sample

  • • 1080p Chasing Robert Barker 2015 English Movies HDRip XviD AAC New Source with Sample Torrent
  • • 720p Chasing Robert Barker 2015 English Movies HDRip XviD AAC New Source with Sample DVDRip
  • • HD Chasing Robert Barker 2015 English Movies HDRip XviD AAC New Source with Sample
  • • Dvix/Xvid Chasing Robert Barker 2015 English Movies HDRip XviD AAC New Source with Sample
  • • Blu-ray Chasing Robert Barker 2015 English Movies HDRip XviD AAC New Source with Sample

Recently Added Torrents

torrent name size age seed leech
1.05 MB 23 minutes 500 15
133.57 MB 23 minutes 589 238
682.6 MB 23 minutes 435 499
4.45 GB 23 minutes 410 432
459.2 MB 23 minutes 689 344