Loading...

About.Ray.2015.BRRip.XviD.AC3-iFT[PRiME]

seeders: 330
leechers: 194
About.Ray.2015.BRRip.XviD.AC3-iFT[PRiME] magnet link

Info Hash: C5A2C854D61EF7EA654201B76DC251E9C771C367
Loading...
About.Ray.2015.BRRip.XviD.AC3-iFT[PRiME]
  • Downloads 17
  • Added 8 months
  • Quality Good
  • Torrent ID 16594156
  • Note if .torrent file deleted click magnet below
  • Download Magnet
Torrent Info:
• You can easily download About.Ray.2015.BRRip.XviD.AC3-iFT[PRiME] Torerent to your PC, MAC, Tablet, Mobile or any other devices.
• HD Quality Torrent About.Ray.2015.BRRip.XviD.AC3-iFT[PRiME]
• Your Support Keep WatchTorrentMovie.Us alive.

Torrent Files

About.Ray.2015.BRRip.XviD.AC3-iFT[PRiME] (Size: 1.55 GB)
  About.Ray.2015.BRRip.XviD.AC3-iFT[PRiME] 1.55 GB

Torrent Description



About.Ray.2015.BRRip.XviD.AC3-iFT

ImDb: http://www.imdb.com/title/tt4158624



Complete name                            : About.Ray.2015.BRRip.XviD.AC3-iFT.avi
Format                                   : AVI
Format/Info                              : Audio Video Interleave
Format profile                           : OpenDML
Format settings                          : rec
File size                                : 1.53 GiB
Duration                                 : 1 h 32 min
Overall bit rate                         : 2 370 kb/s
Writing application                      : AVI-Mux GUI 1.17.8.3, Feb 16 201019:42:50

Video
ID                                       : 0
Format                                   : MPEG-4 Visual
Format profile                           : Advanced
Format settings, BVOP                    : 2
Format settings, QPel                    : No
Format settings, GMC                     : No warppoints
Format settings, Matrix                  : Default (H.263)
Muxing mode                              : Packed bitstream
Codec ID                                 : XVID
Codec ID/Hint                            : XviD
Duration                                 : 1 h 32 min
Bit rate                                 : 1 916 kb/s
Width                                    : 720 pixels
Height                                   : 384 pixels
Display aspect ratio                     : 1.85:1
Frame rate                               : 23.976 (23976/1000) FPS
Color space                              : YUV
Chroma subsampling                       : 4:2:0
Bit depth                                : 8 bits
Scan type                                : Progressive
Compression mode                         : Lossy
Bits/(Pixel*Frame)                       : 0.289
Stream size                              : 1.24 GiB (81%)
Writing library                          : XviD 73

Audio
ID                                       : 1
Format                                   : AC-3
Format/Info                              : Audio Coding 3
Mode extension                           : CM (complete main)
Format settings, Endianness              : Big
Codec ID                                 : 2000
Duration                                 : 1 h 32 min
Bit rate mode                            : Constant
Bit rate                                 : 448 kb/s
Channel(s)                               : 6 channels
Channel positions                        : Front: L C R, Side: L R, LFE
Sampling rate                            : 48.0 kHz
Frame rate                               : 31.250 FPS (1536 spf)
Compression mode                         : Lossy
Stream size                              : 297 MiB (19%)
Alignment                                : Aligned on interleaves
Interleave, duration                     : 64  ms (1.53 video frames)
Interleave, preload duration             : 192  ms
Title                                    : ac3




Click Image To View Full Size


Click To View Screenshot
Click To View Screenshot
Click To View Screenshot


( Tags )





People also Search for: About.Ray.2015.BRRip.XviD.AC3-iFT[PRiME]

  • • 1080p About.Ray.2015.BRRip.XviD.AC3-iFT[PRiME] Torrent
  • • 720p About.Ray.2015.BRRip.XviD.AC3-iFT[PRiME] DVDRip
  • • HD About.Ray.2015.BRRip.XviD.AC3-iFT[PRiME]
  • • Dvix/Xvid About.Ray.2015.BRRip.XviD.AC3-iFT[PRiME]
  • • Blu-ray About.Ray.2015.BRRip.XviD.AC3-iFT[PRiME]

Recently Added Torrents

torrent name size age seed leech
292.03 MB 26 minutes 417 13
128.7 MB 26 minutes 426 41
503.04 MB 26 minutes 108 208
144.7 MB 26 minutes 544 66
1.7 GB 26 minutes 689 91